Render.ru

QuickTime H.264 10000 битрейт - Качество ужасное

midagent

Пользователь сайта
Рейтинг
2
#1
Здравствуйте. Вывел композицию с настройками QuickTime H.264 битрейт 10 000. Рендер шел 4 часа. Видео длиться 15 минут. В самой программе при full отображении и 100% развертке качество то что надо, а когда я вывел я получил примерно такое качество
AVN.mov_snapshot_00.04_[2015.07.03_11.06.09].jpg AVN.mov_snapshot_01.05_[2015.07.03_11.06.26].jpg AVN.mov_snapshot_03.06_[2015.07.03_11.06.33].jpg AVN.mov_snapshot_07.26_[2015.07.03_11.06.43].jpg AVN.mov_snapshot_09.35_[2015.07.03_11.06.53].jpg

Я остался очень недовольным качеством. С чем связано такое качество при таких казалось бы высоких настройках? Как же увеличить качество?

Информация от MediaInfo:

General
Complete name : H:\123.mov
Format : MPEG-4
Format profile : QuickTime
Codec ID : qt
File size : 1.38 GiB
Duration : 15mn 4s
Overall bit rate mode : Variable
Overall bit rate : 13.1 Mbps
Encoded date : UTC 2015-07-02 17:11:41
Tagged date : UTC 2015-07-02 21:15:48
Writing library : Apple QuickTime
©TIM : 00;00;00;00
©TSC : 2997
©TSZ : 100

Video
ID : 1
Format : AVC
Format/Info : Advanced Video Codec
Format profile : Main@L3.1
Format settings, CABAC : No
Format settings, ReFrames : 2 frames
Format settings, GOP : N=1
Codec ID : avc1
Codec ID/Info : Advanced Video Coding
Duration : 15mn 4s
Bit rate mode : Variable
Bit rate : 9 997 Kbps
Width : 1 280 pixels
Height : 720 pixels
Display aspect ratio : 16:9
Frame rate mode : Constant
Frame rate : 29.970 fps
Color space : YUV
Chroma subsampling : 4:2:0
Bit depth : 8 bits
Scan type : Progressive
Bits/(Pixel*Frame) : 0.362
Stream size : 1.05 GiB (76%)
Title : Обработчик видео Apple / Обработчик псевдонимов Apple
Language : English
Encoded date : UTC 2015-07-02 17:11:43
Tagged date : UTC 2015-07-02 21:15:46
Color primaries : BT.709
Transfer characteristics : BT.709
Matrix coefficients : BT.709

Audio
ID : 2
Format : PCM
Codec ID : fl32
Codec ID/Hint :
Duration : 15mn 4s
Source duration : 15mn 4s
Bit rate mode : Constant
Bit rate : 1 536 Kbps
Channel(s) : 2 channels
Channel positions : Front: L R
Sampling rate : 48.0 KHz
Bit depth : 16 bits
Stream size : 166 MiB (12%)
Source stream size : 166 MiB (12%)
Title : Обработчик звука Apple / Обработчик псевдонимов Apple
Language : English
Encoded date : UTC 2015-07-02 17:11:47
 

KarikhSergey

Активный участник
Рейтинг
19
#2
Для начала, перестаньте использовать After Effects для таких длинных композиций. Для этого существует Adobe Premier или подобные монтажные программы.
По вашему вопросу подразумеваю, что дело вот в этом Overall bit rate mode :
Variable
Попробуйте жёстко зафиксировать значение...
 

AEplug

Мастер
Рейтинг
361
#3
насколько помню АЕ что то мудрит с QuickTime H.264. Включи для него растоние между кадровое.

Точно уже не помню, но работал он год назад (когда я его тестировал) ужасно!
Не советую всячески делать его тут!
 
Сверху