1. Пользоваться форумом на планшетах и телефонах стало удобнее благодаря Tapatalk

Проблема с .mkv, .avi файлами в Adobe Premiere Pro CC 7.2

Тема в разделе "Adobe Premiere", создана пользователем Andrew_Fox, 3 авг 2014.

Модераторы: Saplus
  1. Andrew_Fox

    Andrew_Fox Пользователь сайта

    С нами с:
    14.01.2014
    Сообщения:
    3
    Симпатии:
    0
    Баллы:
    2
    Привет всем, хотел задать вопрос знатокам программы, не могу портировать в прогу файлы .mkv, .avi, но могу портировать .мр4, quick time 7.2 стоит, К-лайт есть,

    MediaInfo №1
    Код:
    General
    Complete name                            : D:\Видео\Клипы\2517 - Жду чуда.avi
    Format                                  : AVI
    Format/Info                              : Audio Video Interleave
    File size                                : 81.1 MiB
    Duration                                : 4mn 36s
    Overall bit rate                        : 2 458 Kbps
    Writing application                      : VirtualDubMod 1.5.10.2 (build 2540/release)
    Writing library                          : VirtualDubMod build 2540/release
     
    Video
    ID                                      : 0
    Format                                  : MPEG-4 Visual
    Format profile                          : Advanced Simple@L5
    Format settings, BVOP                    : 1
    Format settings, QPel                    : No
    Format settings, GMC                    : No warppoints
    Format settings, Matrix                  : Default (H.263)
    Codec ID                                : XVID
    Codec ID/Hint                            : XviD
    Duration                                : 4mn 36s
    Bit rate                                : 2 000 Kbps
    Width                                    : 720 pixels
    Height                                  : 400 pixels
    Display aspect ratio                    : 16:9
    Frame rate                              : 25.000 fps
    Color space                              : YUV
    Chroma subsampling                      : 4:2:0
    Bit depth                                : 8 bits
    Scan type                                : Progressive
    Compression mode                        : Lossy
    Bits/(Pixel*Frame)                      : 0.278
    Stream size                              : 66.0 MiB (81%)
    Writing library                          : XviD 1.2.0.dev47 (UTC 2006-11-01)
     
    Audio
    ID                                      : 1
    Format                                  : AC-3
    Format/Info                              : Audio Coding 3
    Mode extension                          : CM (complete main)
    Format settings, Endianness              : Big
    Codec ID                                : 2000
    Duration                                : 4mn 36s
    Bit rate mode                            : Constant
    Bit rate                                : 448 Kbps
    Channel count                            : 2 channels
    Channel positions                        : Front: L R
    Sampling rate                            : 48.0 KHz
    Bit depth                                : 16 bits
    Compression mode                        : Lossy
    Stream size                              : 14.8 MiB (18%)
    Alignment                                : Split accross interleaves
    Interleave, duration                    : 40 ms (1.00 video frame)
    Interleave, preload duration            : 500 ms
    MediaInfo №2
    Код:
    General
    Unique ID                                : 247925732620570527837348727442810335451 (0xBA84C25DCD65AF389D189375E777F0DB)
    Complete name                            : D:\Видео\mkv\Клипы\Sam Tsui [и команда]\Sam Tsui - Dont Want An Ending.mkv
    Format                                  : Matroska
    Format version                          : Version 2
    File size                                : 341 MiB
    Duration                                : 4mn 22s
    Overall bit rate mode                    : Variable
    Overall bit rate                        : 10.9 Mbps
    Encoded date                            : UTC 2014-08-02 16:07:34
    Writing application                      : mkvmerge v6.1.0 ('Old Devil') built on Mar  4 2013 09:10:42
    Writing library                          : libebml v1.3.0 + libmatroska v1.4.0
     
    Video
    ID                                      : 1
    Format                                  : AVC
    Format/Info                              : Advanced Video Codec
    Format profile                          : High@L4.0
    Format settings, CABAC                  : Yes
    Format settings, ReFrames                : 4 frames
    Codec ID                                : V_MPEG4/ISO/AVC
    Duration                                : 4mn 22s
    Nominal bit rate                        : 10 000 Kbps
    Width                                    : 1 920 pixels
    Height                                  : 784 pixels
    Display aspect ratio                    : 2.40:1
    Frame rate mode                          : Constant
    Frame rate                              : 24.000 fps
    Color space                              : YUV
    Chroma subsampling                      : 4:2:0
    Bit depth                                : 8 bits
    Scan type                                : Progressive
    Bits/(Pixel*Frame)                      : 0.277
    Writing library                          : x264 core 130 r2273 b3065e6
    Encoding settings                        : cabac=1 / ref=3 / deblock=1:0:0 / analyse=0x3:0x113 / me=hex / subme=7 / psy=1 / psy_rd=1.00:0.00 / mixed_ref=1 / me_range=16 / chroma_me=1 / trellis=1 / 8x8dct=1 / cqm=0 / deadzone=21,11 / fast_pskip=1 / chroma_qp_offset=-2 / threads=6 / lookahead_threads=1 / sliced_threads=0 / nr=0 / decimate=1 / interlaced=0 / bluray_compat=0 / constrained_intra=0 / bframes=3 / b_pyramid=2 / b_adapt=1 / b_bias=0 / direct=1 / weightb=1 / open_gop=0 / weightp=2 / keyint=250 / keyint_min=23 / scenecut=40 / intra_refresh=0 / rc_lookahead=40 / rc=2pass / mbtree=1 / bitrate=10000 / ratetol=1.0 / qcomp=0.60 / qpmin=0 / qpmax=69 / qpstep=4 / cplxblur=20.0 / qblur=0.5 / ip_ratio=1.40 / aq=1:1.00
    Default                                  : Yes
    Forced                                  : No
     
    Audio
    ID                                      : 2
    Format                                  : FLAC
    Format/Info                              : Free Lossless Audio Codec
    Codec ID                                : A_FLAC
    Duration                                : 4mn 22s
    Bit rate mode                            : Variable
    Channel count                            : 2 channels
    Sampling rate                            : 44.1 KHz
    Bit depth                                : 16 bits
    Writing library                          : Lavf53.19.0
    Default                                  : Yes
    Forced                                  : No
    
    pic_62.jpg

    Подскажите, что делать?
     
  2. rsline

    rsline Пользователь сайта

    С нами с:
    13.05.2014
    Сообщения:
    13
    Симпатии:
    0
    Баллы:
    2
    Так и есть Премьер будет выдавать ошибку. Пере конвертируй их в другой формат любым конвертором и проблема решена,загрузишь файлы в проект.
     
  3. Andrew_Fox

    Andrew_Fox Пользователь сайта

    С нами с:
    14.01.2014
    Сообщения:
    3
    Симпатии:
    0
    Баллы:
    2
    просто в другой не поможет, нужно либо в .мр4, либо в .avi но с кодеком fps1, с другими кодеками .avi не партируется
     
Модераторы: Saplus

Поделиться этой страницей