1. Пользоваться форумом на планшетах и телефонах стало удобнее благодаря Tapatalk

Premiere CS6.0 завышенная яркость и рывки

Тема в разделе "Adobe Premiere", создана пользователем AlexKuz, 24 апр 2014.

Модераторы: Saplus
  1. AlexKuz

    AlexKuz Пользователь сайта

    С нами с:
    18.11.2009
    Сообщения:
    2
    Симпатии:
    0
    Баллы:
    2
    Версия премьера - [​IMG]
    Возникла такая проблема - после переустановки системы и соответственно премьеру появились две беды:
    1) видео как в предпросмотре, так и в финальном отрендеренном видеофайле в случайных местах делает рывок назад на 10-15 кадров. В исходном файле таких рывков нет, частота кадров исходного видео 30, проекта премьера 29,97, стандартные настройки профиля AVCHD 720p [​IMG]
    Пробовал создавать свой профиль с честными 30 фпс в настройках, картина та же. На вин7сп1 проблем не было, после установки вин8сп1 это всё началось. Версия премьера была та же, настройки стандартные.
    2) В предпросмотре и в финальном рендере картинка получается с повышенной яркостью, будто бы не совпадают цветовые пространства. Опять же, до перехода на вин8сп1 такого я не замечал на тех же стандартных настройках премьера.


    Медиаинфо исходного видеофайла:
    Код:
    Video
    ID                                       : 0
    Format                                   : JPEG
    Codec ID                                 : MJPG
    Duration                                 : 6mn 21s
    Bit rate                                 : 53.3 Mbps
    Width                                    : 1 280 pixels
    Height                                   : 720 pixels
    Display aspect ratio                     : 16:9
    Frame rate                               : 30.000 fps
    Color space                              : YUV
    Chroma subsampling                       : 4:2:0
    Bit depth                                : 8 bits
    Compression mode                         : Lossy
    Bits/(Pixel*Frame)                       : 1.928
    Stream size                              : 2.37 GiB (97%)
    Медиаинфо выходного видео:
    Код:
    ID                                       : 1
    Format                                   : AVC
    Format/Info                              : Advanced Video Codec
    Format profile                           : High@L3.1
    Format settings, CABAC                   : Yes
    Format settings, ReFrames                : 3 frames
    Codec ID                                 : avc1
    Codec ID/Info                            : Advanced Video Coding
    Duration                                 : 37mn 54s
    Source duration                          : 37mn 54s
    Bit rate                                 : 4 996 Kbps
    Width                                    : 1 280 pixels
    Height                                   : 720 pixels
    Display aspect ratio                     : 16:9
    Frame rate mode                          : Variable
    Frame rate                               : 29.970 fps
    Minimum frame rate                       : 29.970 fps
    Maximum frame rate                       : 30.000 fps
    Standard                                 : NTSC
    Color space                              : YUV
    Chroma subsampling                       : 4:2:0
    Bit depth                                : 8 bits
    Scan type                                : Progressive
    Bits/(Pixel*Frame)                       : 0.181
    Stream size                              : 1.32 GiB (94%)
    Source stream size                       : 1.32 GiB (94%)
    Language                                 : English
    Encoded date                             : UTC 2014-04-23 22:24:50
    Tagged date                              : UTC 2014-04-23 22:24:50
    Color primaries                          : BT.709
    Transfer characteristics                 : BT.709
    Matrix coefficients                      : BT.709
    mdhd_Duration                            : 2274506
    
     
Модераторы: Saplus

Поделиться этой страницей