1. Пользоваться форумом на планшетах и телефонах стало удобнее благодаря Tapatalk

Мин сист. требования для мультикама в Sony Vegas 11 Pro

Тема в разделе "Общие вопросы", создана пользователем эндарс, 27 июн 2012.

Модераторы: Григорий Чаленко
  1. эндарс

    эндарс Пользователь сайта

    С нами с:
    17.06.2012
    Сообщения:
    1
    Симпатии:
    0
    Баллы:
    2
    Здравствуйте! Знатоки и опытные бойцы, столкнулся с проблемой: в режиме мультикам в окне превью тормозит прорсмотр 3-х камер. когда задействованы 2 камеры - просмотр нормальный, а как только обратно включается 3-яя камера - опять начинаются тормоза: невозможно работать нормально. Может Вы знаете в чем дело? Проверял на 3-х машинах. Только на одной просмотр идет без тормозов (машина №1). Я так подразумеваю это все из-за начинки систем?

    машина №1 (PC): CPU Intel Core i5-2500 (3.3GHz)/RAM 8GB DDR3 2133Mhz/Graphic card ASUS GeForce GTX 460 (GDDR5 1024 Мб, 775/4000 МГц, 256 бит)/HDD 500GB WD Caviar Blue (SATA 3.0, 7 200rpm, 16 МБ) + 2Тб WD Caviar Green (SATA 3.0, 5 400 об/мин, 64 МБ) - проект лежит на диске 2Тб WD

    машина №2 (ноутбук): LIFEBOOK AH531: CPU Intel Core i3-2330M (2200MHz, 3MB)/RAM 4GB DDR3/Graphic card NVIDIA GeForce GT 525M 1GB/HDD 500 Гб (5400rpm) - здесь получше просмотр идет, но все равно после 30 мин работы - страшно начинает тормозить.

    машина №3 (PC): CPU Intel Pentium Dual-Core E5700 3.00GHz 800MHz 2 mb LGA775 box/RAM 2GB DDR3 1333Mhz/Graphic card Geforce GT 430 (DDR3 1024mb 128bit 700 mhz, 1333mhz)/HDD 500GB WD Caviar Blue (SATA 3.0, 7200rpm, 16mb)

    Моя машина №3. :(

    p.s. работаю с ужатыми файлами. вот данные mediainfo:
    Код:
    Format                           : MPEG-4
    Format profile                   : Base Media
    Codec ID                         : isom
    File size                        : 3.84 MiB
    Duration                         : 11s 520ms
    Overall bit rate                 : 2 796 Kbps
    Encoded date                     : UTC 2012-06-24 23:53:46
    Tagged date                      : UTC 2012-06-24 23:53:46
    Writing application              : Lavf52.93.0
    Comment                          : Advanced Video Compressor - WinSoftMagic.com
    
    Video
    ID                               : 1
    Format                           : MPEG-4 Visual
    Format profile                   : Simple@L1
    Format settings, BVOP            : No
    Format settings, QPel            : No
    Format settings, GMC             : No warppoints
    Format settings, Matrix          : Default (H.263)
    Codec ID                         : 20
    Duration                         : 11s 520ms
    Bit rate mode                    : Variable
    Bit rate                         : 2 622 Kbps
    Width                            : 720 pixels
    Height                           : 404 pixels
    Display aspect ratio             : 16:9
    Frame rate mode                  : Constant
    Frame rate                       : 25.000 fps
    Color space                      : YUV
    Chroma subsampling               : 4:2:0
    Bit depth                        : 8 bits
    Scan type                        : Progressive
    Compression mode                 : Lossy
    Bits/(Pixel*Frame)               : 0.361
    Stream size                      : 3.60 MiB (94%)
    Writing library                  : Lavc52.108.0
    Language                         : English
    Encoded date                     : UTC 2012-06-24 23:53:46
    Tagged date                      : UTC 2012-06-24 23:53:46
    
    Audio
    ID                               : 2
    Format                           : AAC
    Format/Info                      : Advanced Audio Codec
    Format profile                   : LC
    Codec ID                         : 40
    Duration                         : 11s 478ms
    Bit rate mode                    : Variable
    Bit rate                         : 168 Kbps
    Channel(s)                       : 2 channels
    Channel positions                : Front: L R
    Sampling rate                    : 48.0 KHz
    Compression mode                 : Lossy
    Stream size                      : 236 KiB (6%)
    Language                         : English
    Encoded date                     : UTC 2012-06-24 23:53:46
    Tagged date                      : UTC 2012-06-24 23:53:46
    
     
Модераторы: Григорий Чаленко

Поделиться этой страницей