1. Пользоваться форумом на планшетах и телефонах стало удобнее благодаря Tapatalk

Добавление звука в Adobe Premiere Pro CC

Тема в разделе "Adobe Premiere", создана пользователем Mokytex, 20 июн 2014.

Модераторы: Saplus
  1. Mokytex

    Mokytex Пользователь сайта

    С нами с:
    20.06.2014
    Сообщения:
    1
    Симпатии:
    0
    Баллы:
    2
    Есть файл:
    General
    Complete name : E:\Movies\Видео\Video 20-06-2014 13-05-44.mp4
    Format : MPEG-4
    Format profile : Base Media / Version 1
    Codec ID : mp41
    File size : 2.95 GiB
    Duration : 29mn 59s
    Overall bit rate : 14.1 Mbps
    Encoded date : UTC 2014-06-20 10:35:45
    Tagged date : UTC 2014-06-20 10:35:45

    Video
    ID : 1
    Format : AVC
    Format/Info : Advanced Video Codec
    Format profile : Main@L4.0
    Format settings, CABAC : Yes
    Format settings, ReFrames : 1 frame
    Format settings, GOP : M=1, N=60
    Muxing mode : Container profile=Baseline@3.0
    Codec ID : avc1
    Codec ID/Info : Advanced Video Coding
    Duration : 29mn 59s
    Duration_FirstFrame : -3ms
    Bit rate : 13.8 Mbps
    Width : 1 152 pixels
    Height : 720 pixels
    Display aspect ratio : 16:10
    Frame rate mode : Constant
    Frame rate : 60.000 fps
    Color space : YUV
    Chroma subsampling : 4:2:0
    Bit depth : 8 bits
    Scan type : Progressive
    Bits/(Pixel*Frame) : 0.277
    Stream size : 2.89 GiB (98%)
    Language : English
    Encoded date : UTC 2014-06-20 10:35:45
    Tagged date : UTC 2014-06-20 10:35:45

    Audio #1
    ID : 2
    Format : AAC
    Format/Info : Advanced Audio Codec
    Format profile : LC
    Codec ID : 40
    Duration : 29mn 59s
    Bit rate mode : Constant
    Bit rate : 128 Kbps
    Channel(s) : 2 channels
    Channel positions : Front: L R
    Sampling rate : 44.1 KHz
    Compression mode : Lossy
    Stream size : 27.4 MiB (1%)
    Language : English
    Encoded date : UTC 2014-06-20 10:35:45
    Tagged date : UTC 2014-06-20 10:35:45

    Audio #2
    ID : 3
    Format : AAC
    Format/Info : Advanced Audio Codec
    Format profile : LC
    Codec ID : 40
    Duration : 29mn 59s
    Bit rate mode : Constant
    Bit rate : 128 Kbps
    Channel(s) : 2 channels
    Channel positions : Front: L R
    Sampling rate : 44.1 KHz
    Compression mode : Lossy
    Stream size : 27.4 MiB (1%)
    Language : English
    Encoded date : UTC 2014-06-20 10:35:45
    Tagged date : UTC 2014-06-20 10:35:45

    В сам же Adobe Premiere Pro CC добавляется только Audio #1, а Audio #2 - нет. Как добавить Audio #2?
     

    Вложения:

Модераторы: Saplus

Поделиться этой страницей